Kingdom Of Heaven (El Reino De Los Cielos) 2005



Información Técnica :
  KINGDOM OF HEAVEN-Bluray-Avi 1080p
Idioma: INGLES-Subtitulos ESPAÑOL | RAR | 32 & 64 Bits  | 2.56 GB
Sistemas Soportados :WINDOWS XP | VISTA | WINDOWS  7- 8- 8.1-10
Publicado En: Peliculas,Cine yTv
Por: PANAJACK 777

DESCRIPCION
Sinopsis
Siglo XII, Europa entera está inmersa en las Cruzadas para recuperar la Tierra Santa. Godofredo de Ibelin (Liam Neeson), caballero respetado por el rey de Jerusalén y comprometido con el mantenimiento de la paz en la región, emprende la búsqueda de su hijo ilegítimo Balian (Orlando Bloom), joven herrero francés que llora la pérdida de su mujer y su hijo. Godofredo convence a su hijo para que lo acompañe en su misión. Tras la muerte de su padre, Balian hereda sus tierras y su título de caballero en Jerusalén, ciudad en la que cristianos, musulmanes y judíos han conseguido convivir pacíficamente durante la tregua entre la Segunda y la Tercera Cruzada. Con una fidelidad inquebrantable, Balian sirve a su rey y, además, se enamora de la princesa Sibylla (Eva Green), la enigmática hermana del monarca. 

CARACTERISTICAS


Complete name : Kingdom of Heaven 2005.Director's.Cut.1080p.BluRay.x264
Format : BluRay 1080p Avi
Format profile : Base Media
Codec ID : isom
File size : 2.83 GB
Duration : 3h 9mn
Overall bit rate : 2 892 Kbps

Format : AVC
Format/Info : Advanced Video Codec
Format profile : High@L4.0
Format settings, CABAC : Yes
Format settings, ReFrames : 3 frames
Codec ID : avc1
Codec ID/Info : Advanced Video Coding
Duration : 3h 9mn
Bit rate : 2 250 Kbps
Maximum bit rate : 12.4 Mbps
Width : 1 920 pixels
Height : 818 pixels
Display aspect ratio : 2.35:1
Frame rate mode : Constant
Frame rate : 23.976 fps
Color space : YUV
Chroma subsampling : 4:2:0
Bit depth : 8 bits
Scan type : Progressive
Bits/(Pixel*Frame) : 0.060
Stream size : 2.98 GiB (79%)
Title : Director's.Cut.1080p.BluRay.x264 .264#trackID=1:fps=23.976@GPAC0.5.1-DEV-rev4283
Writing library : x264 core 133 r2334 a3ac64b
Encoded date : UTC 2013-11-16 15:06:22
Tagged date : UTC 2013-11-16 15:26:59
Color primaries : BT.709
Transfer characteristics : BT.709
Matrix coefficients : BT.709

Audio

ID : 2
Format : AC-3
Format/Info : Audio Coding 3
Mode extension : CM (complete main)
Format settings, Endianness : Big
Codec ID : ac-3
Duration : 3h 9mn
Bit rate mode : Constant
Bit rate : 640 Kbps
Channel(s) : 6 channels
Channel positions : Front: L C R, Side: L R, LFE
Sampling rate : 48.0 KHz
Bit depth : 16 bits
Compression mode : Lossy
Stream size : 868 MiB (21%)
Title : Director's.Cut.1080p.BluRay.x264 . NVEE - [0] English_audio.ac3#trackID=1:lang=en@GPAC0.5.1-DEV-rev4283
Language : English


Video Trailer(Kingdom Of Heaven)


CAPTURAS








ENLACES DE DESCARGA
PROGRAMA + MEDICINA
Rar | INGLES Subtitulos ESPAÑOL | 2.56 GB
MD5 Checksum: 5E91658566AC909382BBBF6E7B1ECDDF(?)
alberto howard
alberto howard

Hola... Este Post esta elaborado por mi pero logicamente con Informacion sacada de la web; si les gusta pueden descargarlo y tambien apoyar a el creador del mismo ya que asumo le llevo mucho Tiempo y esfuerzo en crearlo....

1 comentario:

:) :-) :)) =)) :( :-( :(( :d :-d @-) :p :o :>) (o) [-( :-? (p) :-s (m) 8-) :-t :-b b-( :-# =p~ :-$ (b) (f) x-) (k) (h) (c) cheer